منتديات احباب عرب  

العودة   منتديات احباب عرب > القسم التقني > سات 2017 ـ sat 2017

WWE.Friday.Night.Smackdown.2012.02.03.HDTV.XviD-vasylius

WWE.Friday.Night.Smackdown.2012.02.03.HDTV.XviD-vasylius كود: General Complete name : D:\WWE.Friday.Night.Smackdown.2012.02.03.HDTV.XviD-vasylius.avi Format

إضافة رد
 
LinkBack أدوات الموضوع انواع عرض الموضوع
  #1  
قديم 02-03-2012, 08:42 PM
الصورة الرمزية رشاء احمد
رشاء احمد غير متواجد حالياً
 
تاريخ التسجيل: Mar 2010
المشاركات: 64,439
معدل تقييم المستوى: 82
رشاء احمد has much to be proud ofرشاء احمد has much to be proud ofرشاء احمد has much to be proud ofرشاء احمد has much to be proud ofرشاء احمد has much to be proud ofرشاء احمد has much to be proud ofرشاء احمد has much to be proud ofرشاء احمد has much to be proud of
موضوع منقول WWE.Friday.Night.Smackdown.2012.02.03.HDTV.XviD-vasylius

WWE.Friday.Night.Smackdown.2012.02.03.HDTV.XviD-vasylius


WWE.Friday.Night.Smackdown.2012.02.03.HDTV.XviD-vasylius

WWE.Friday.Night.Smackdown.2012.02.03.HDTV.XviD-vasylius

كود:
General
Complete name : D:\WWE.Friday.Night.Smackdown.2012.02.03.HDTV.XviD-vasylius.avi
Format : AVI
Format/Info : Audio Video Interleave
File size : 832 MiB
Duration : 1h 27mn
Overall bit rate : 1 336 Kbps

Video
ID : 0
Format : MPEG-4 Visual
Format profile : Advanced [email protected]
Format settings, BVOP : 2
Format settings, QPel : No
Format settings, GMC : No warppoints
Format settings, Matrix : Default (H.263)
Muxing mode : Packed bitstream
Codec ID : XVID
Codec ID/Hint : XviD
Duration : 1h 27mn
Bit rate : 1 199 Kbps
Width : 624 pixels
Height : 352 pixels
Display aspect ratio : 16:9
Frame rate : 25.000 fps
Color space : YUV
Chroma subsampling : 4:2:0
Bit depth : 8 bits
Scan type : Progressive
Compression mode : Lossy
Bits/(Pixel*Frame) : 0.218
Stream size : 747 MiB (90%)
Writing library : XviD 1.2.1 (UTC 2008-12-04)

Audio
ID : 1
Format : AC-3
Format/Info : Audio Coding 3
Mode extension : CM (complete main)
Codec ID : 2000
Duration : 1h 27mn
Bit rate mode : Constant
Bit rate : 128 Kbps
Channel(s) : 2 channels
Channel positions : Front: L R
Sampling rate : 48.0 KHz
Bit depth : 16 bits
Compression mode : Lossy
Stream size : 79.7 MiB (10%)
Alignment : Aligned on interleaves
Interleave, duration : 40 ms (1.00 video frame)

WWE.Friday.Night.Smackdown.2012.02.03.HDTV.XviD-vasylius

WWE.Friday.Night.Smackdown.2012.02.03.HDTV.XviD-vasylius
WWE.Friday.Night.Smackdown.2012.02.03.HDTV.XviD-vasylius


WWE.Friday.Night.Smackdown.2012.02.03.HDTV.XviD-vasylius
(Resume Supported for Free Users)
كود:

[فقط الأعضاء المسجلين والمفعلين يمكنهم رؤية الوصلات . إضغط هنا للتسجيل]

DepostitFiles
Resume Supported for Free Users
كود:

[فقط الأعضاء المسجلين والمفعلين يمكنهم رؤية الوصلات . إضغط هنا للتسجيل]



المواضيع المتشابهه:

رد مع اقتباس
إضافة رد


الذين يشاهدون محتوى الموضوع الآن : 1 ( الأعضاء 0 والزوار 1)
 
أدوات الموضوع
انواع عرض الموضوع

تعليمات المشاركة
لا تستطيع إضافة مواضيع جديدة
لا تستطيع الرد على المواضيع
لا تستطيع إرفاق ملفات
لا تستطيع تعديل مشاركاتك

BB code is متاحة
كود [IMG] متاحة
كود HTML معطلة
Trackbacks are متاحة
Pingbacks are متاحة
Refbacks are متاحة


Privacy Policy سياسة الخصوصية |

free counters

Sitemap

الساعة الآن 10:23 AM.


Powered by vBulletin™ Version 3.8.7
Copyright © 2017 vBulletin Solutions, Inc. All rights reserved.
SEO by vBSEO

Security team